Exact Audio Copy β18 [無断転載禁止]©2ch.net

1名無しさん@お腹いっぱい。2017/06/05(月) 19:28:07.43ID:dNbCklka0
強力なCDリッピング機能がある統合音楽ソフト "Exact Audio Copy (EAC)" のスレです。
地元か近くの田舎の絵がある素晴らしい絵葉書を送ってユーザー登録しましょう。
絵葉書には、好きな事 (what you like) と e-mail アドレスを書きましょう。
(宛先、詳細は、Documentation\EAC.TXT [英文] の Registration 参照)

EAC - Exact Audio Copy
  http://www.exactaudiocopy.org/
  http://www.exactaudiocopy.de/

日本語パッチ / 日本語リソース
(V0.95 beta 4 では、メニューの EAC → EAC options → General で言語切り替え)
 945氏作
  http://homepage3.nifty.com/eacj/

V1.0b3の日本語言語ファイル
  http://sonicdisorder.net/eacinstall.php

前スレ
Exact Audio Copy β17
http://egg.2ch.net/test/read.cgi/software/1464202605

250名無しさん@お腹いっぱい。2018/08/07(火) 02:11:25.12ID:n5LU/ssd0
ほしゅ

251名無しさん@お腹いっぱい。2018/09/14(金) 17:16:59.78ID:JIbtluXZ0
vistaからwin10にパソコン変えて久しぶりに設定やり直してるけど大変だ
前のパソコンはイカれて確認できないからなかなか同じにならない…

252名無しさん@お腹いっぱい。2018/09/15(土) 15:19:00.61ID:KQzdMNp20
左側のCMPアイコンはどうやったらMP3になるんだっけ?
エンコードに影響ないけど気になる

そしてfreedbに情報ないCDが久しぶりにあった

253名無しさん@お腹いっぱい。2018/09/15(土) 15:41:21.78ID:7CAkyoQX0
エンコーダーにQAACを使ってるんですが、品質を指定してエンコードするにはどうすればいいんでしょう?
ネットで見ると下記のコマンドでエンコしろと書かれてますが、これだと最高品質でしかエンコできません。

--alac -o %dest% --title "%title%" --artist "%artist%" --album "%albumtitle%" --comment "%comment%"
--genre "%genre%" --date "%year%" --track "%tracknr%" --composer "%composer%" --artwork "%coverfile%" "%source%"

254名無しさん@お腹いっぱい。2018/09/17(月) 09:12:35.29ID:N7gjNPAm0
ALACはロスレスだから品質とかないよ

255名無しさん@お腹いっぱい。2018/09/17(月) 10:34:34.34ID:lBOe3+4M0
さてはAACでエンコードするつもりだったな

256名無しさん@お腹いっぱい。2018/09/17(月) 18:14:35.12ID:dVLMWLvc0
どっちにしても意味がわからない

257名無しさん@お腹いっぱい。2018/09/18(火) 00:01:04.40ID:QzU0NXcC0
お前ら何でCueRipper使わないの?

258名無しさん@お腹いっぱい。2018/09/18(火) 00:19:08.11ID:JskRSOlW0
CueRipperは別スレあるからここでわざわざ話さないだけ

259名無しさん@お腹いっぱい。2018/09/23(日) 02:50:19.80ID:55sNuOEb0
すまん スレチかもしれんが勢い的にここ質問させてくれ
1トラック目にプリギャップがあるCD(INDEX 00 00:00:00 INDEX 01 00:00:33)をflac+cueで保管してるんだが
これを分割して保管する場合、完璧に残したいならこの無音部分もリッピングする必要あるかな?

cueかlogが残ってればCUEToolsでも検索に引っかかるようだけど、普通に分割したものを再結合したら
元のファイルとは別物が出来上がるから不安に思ってる

260名無しさん@お腹いっぱい。2018/09/23(日) 03:13:37.14ID:qIwPpoLj0
>>257
オマエはなんでEAC使わないの?

261名無しさん@お腹いっぱい。2018/09/23(日) 10:02:06.78ID:Wb5T70cz0
>>259
分割cueファイルの頭に
PREGAP 00:00:33
を足しておけばいい

↓こんな感じ
FILE "01 1曲目.wav" WAVE
TRACK 01 AUDIO
TITLE "1曲目"
PREGAP 00:00:33
INDEX 01 00:00:00
FILE "02 2曲目.wav" WAVE
TRACK 02 AUDIO
TITLE "2曲目"
INDEX 01 00:00:00

262名無しさん@お腹いっぱい。2018/09/23(日) 10:04:46.51ID:Wb5T70cz0
ごめん、分かりにくかったので全角空白で整形

FILE "01 1曲目.wav" WAVE
 TRACK 01 AUDIO
  TITLE "1曲目"
  PREGAP 00:00:03     (←この行を足す)
  INDEX 01 00:00:00
FILE "02 2曲目.wav" WAVE
 TRACK 02 AUDIO
  TITLE "2曲目"
  INDEX 01 00:00:00

263名無しさん@お腹いっぱい。2018/09/23(日) 17:22:33.66ID:55sNuOEb0
レスありがとう
それってプリギャップ情報を補うだけで、実際の00:00:33部分は分割した際に欠損してるんだよね?
端的に言うと分割後も再結合したら元の単一flacと整合性を取りたいんだが、
その場合はたった00:00:33でも0曲目としてリッピングするべきなのか悩んでる

にわかだからめちゃくちゃなこと言ってたら申し訳ない

264名無しさん@お腹いっぱい。2018/09/23(日) 22:10:35.87ID:Wq0RgxJ40
プリギャップ(ポストギャップ)って意図的に挿入した無音部分の事じゃないのか?
欠損もなにもないと思うんだが

265名無しさん@お腹いっぱい。2018/09/23(日) 22:15:53.77ID:Wq0RgxJ40
あ、すまん誤解してるかも
無音部分を入れたいけど>>262だと入らないんじゃないのかって言う疑問なのか・・な?
ちなみにPREGAPなら無音部も入ると思うが

266名無しさん@お腹いっぱい。2018/09/24(月) 13:36:38.06ID:lcQrtzxu0
>>263
良いやり方知ってるから時間とれたら後で書くよ

267名無しさん@お腹いっぱい。2018/09/24(月) 13:52:25.11ID:3diITMU90
>>263
まず
・第一トラックのプリギャップを残す("INDEX 00"で記述)
・第一トラックのプリギャップを残さない("PREGAP"で記述)
という二つの流儀がある
この二つは第一トラックのプリギャップが無音ならば、CDに焼き戻す際には事実上同値
"PREGAP"に対応している焼きソフトとドライブの組み合わせなら二つともちゃんと「無音」が記録される

あなたの場合は、流儀は「残す派」となる
元の単一ファイルが第一トラックのプリギャップ込みで取り込まれているなら
分割ファイルの方も第一トラックのプリギャップを含んで取り込んでおけば、同じだといえば同じ
でも分割であれ単一であれcueシートで管理するなら、音源ファイルに(無音の)プリギャップが含まれていなくても
cue側に"PREGAP"が書いてあれば(というか取り込み時に自動で書き込まれるが)結局同じ

268名無しさん@お腹いっぱい。2018/09/24(月) 15:36:31.60ID:lcQrtzxu0
>>263
まず、トラック1を選択した状態でアクション->インデックスに基づいてトラックをコピーを押す
するとflacでencodeした場合は
01.00. track1.flac
01.01. track1.flac
の2つのファイルができるはず
ただしファイル名はそちらの設定によって変わる
必要なのは01.00. track1.flacのみ
01.01. track1.flacは削除していい

分割用cueを作成すると以下のようになっているはず
FILE "01. track1.wav" WAVE
TRACK 01 AUDIO
  PREGAP 00:00:33
INDEX 01 00:00:00
FILE "02. track2.wav" WAVE
TRACK 02 AUDIO
INDEX 01 00:00:00

これを以下のように書き換える
FILE "01.00. track1.wav" WAVE
TRACK 01 AUDIO
INDEX 00 00:00:00
FILE "01. track1.wav" WAVE
INDEX 01 00:00:00
FILE "02. track2.wav" WAVE
TRACK 02 AUDIO
INDEX 01 00:00:00

これで完成
試してないけどたぶんCUEToolsなら単一flac+単一用cueにconvertできるはず
無音でも単一にしたときとバイナリ一致させたいならripしたほうがいいと思う

269名無しさん@お腹いっぱい。2018/09/24(月) 15:43:27.79ID:lcQrtzxu0
補足
分割flac+単一用cueで保存してるなら
01.00. track1.flacをripするだけでいい
cueは書き換える必要ない
foobar2000とかで分割flacをただ結合すれば単一に戻せる

270名無しさん@お腹いっぱい。2018/09/24(月) 17:37:14.57ID:AWzC1tsV0
>>264-269
ありがとう
かなり参考になった

なんかもう曲が入ってるならまだしも、1秒前後のプリギャップを0曲目として残すくらいなら
こういうCDだけはプリギャップ込み単一のままでいいって結論に至りそうだわ
実際分割保管で一曲目の数秒程度のプリギャップを別で残してる人なんているんかな

例え数秒の無音プリギャップと言っても、その場所には隠しトラックとして曲が入ることもあるんだから
そのCDにしか出せない音には違いないとか思い込んじゃってるんだが

271名無しさん@お腹いっぱい。2018/09/24(月) 18:08:32.76ID:lcQrtzxu0
>>270
分割flacと単一用cue派なんだけど一応保存してるw
でも無音のやつは拡張子flac.bakにしちゃってるよ
CDに焼くこともほとんどないし

272名無しさん@お腹いっぱい。2018/09/26(水) 11:55:27.41ID:92CXsNMu0
ここまでの拘りは流石に理解不能過ぎて俺なんて無知の極みだな
分割FLACで残せたら良いとしか思わなくて何のためのcueシートだと自問自答

273名無しさん@お腹いっぱい。2018/09/26(水) 18:11:31.06ID:biWwbOOb0
オムニバスのアルバムがCDDBにない上に手入力も上手くいかなくてイライラする
曲名は何とかできたが、アーティスト名が途中までしか入力できない
文字数制限みたいなのがあるの?
諦めて後でタグ編集しよう…

274名無しさん@お腹いっぱい。2018/09/30(日) 20:59:24.33ID:gRIfqmcb0
>>273
GracenoteでもHITしない?

275名無しさん@お腹いっぱい。2018/10/02(火) 08:49:36.92ID:Gy758d070
>>273
そのアーティスト名は?

276名無しさん@お腹いっぱい。2018/10/02(火) 22:15:47.55ID:KZibzhDJ0
>>274
Gracenoteって何ですか?
組み込みfreedbとcuetools dbと読めないのが2個あります
DB増やせるんですか?
ちなみにデータが無かったのはAround40っていう2008年のオムニバスのアルバムです

277名無しさん@お腹いっぱい。2018/10/02(火) 22:41:14.44ID:KZibzhDJ0
タグエディタ開いて気づいたけどトラック名もアーティスト名もアルバム名も入ってない
前はどうやって自動てやってたのかもう思い出せないよ…

278名無しさん@お腹いっぱい。2018/10/02(火) 22:56:22.84ID:53nu0iGQ0
>>276
これのことじゃない?
http://gncddb.azurewebsites.net/eac.html

279名無しさん@お腹いっぱい。2018/10/03(水) 11:33:30.33ID:mZej1VMa0
「Gracenoteって何ですか?」にずっこけたw
ググレカスも通用しないような御仁なのかw

280名無しさん@お腹いっぱい。2018/10/03(水) 13:33:12.62ID:0/CEYn9q0
gracenoteはitunsのタグデータの元

281名無しさん@お腹いっぱい。2018/10/04(木) 02:25:14.46ID:nFJKBd1k0
gracenoteは確かAmazonも使ってたっけかな

詳しい導入方法は忘れたから
「gracenote EAC」
とかでググって少し理解を深めた方が今後の役に立つと思う
それが難しいなら諦めてituns管理にした方が幸せだと思う

282名無しさん@お腹いっぱい。2018/10/04(木) 03:02:16.80ID:XWmX4eED0
>>278
dクス

>>281
iphone使わないからitunesは使う気にならないです

283名無しさん@お腹いっぱい。2018/10/04(木) 23:36:55.02ID:lv+4ROF60
タグ情報ってエンコードオプションの外部エンコーダの追加のコマンドラインオプションであってますか?
アルバム名もアーティスト名も毎回、空欄になるのでタグエディタ使うの飽きた
ググっても古い情報が少しあるくらいで、よくみんなこれを上手く使いこなすと関心するばかりです
CDジャケットも違う画像ばかり大量に候補に上がって笑う
アマゾンから画像のコピペがいるのか…
ちなみにバージョンは1.3です

284名無しさん@お腹いっぱい。2018/10/05(金) 17:53:45.67ID:SB+hvIhG0
コマンドラインてLAMEの圧縮設定では

285名無しさん@お腹いっぱい。2018/10/05(金) 19:25:37.18ID:zLEPdnrj0
>>273
タイトルに日本語が入力できないな

286名無しさん@お腹いっぱい。2018/10/05(金) 23:23:35.45ID:ObxGd88J0
昔からこのスレで言われてること

「馬鹿は無理すんな」
「馬鹿はiTunes使ってろ」
「EACを何だと思ってんだ?」

287名無しさん@お腹いっぱい。2018/10/20(土) 16:30:23.94ID:6L0NBRWM0
リッピングはフーバー2000を使っていたんだが、
EACが気になって音楽CDをWAVに取り込んでみたらプロパティが空欄・・・。
フーバーだと他のアプリでも読める汎用タグがきちんと入るんだけどなあ。
かなり残念。

288名無しさん@お腹いっぱい。2018/10/20(土) 18:44:05.61ID:ep3liE4s0
ちゃんと設定すればEACでも入力されるよ
fb2k使ってるならそのままで何の問題も内と思うけどな

289名無しさん@お腹いっぱい。2018/10/21(日) 01:37:24.39ID:CYCk9Gh/0
>>288
EACのユーザーインターフェイズがカッコよくて気に入った。
フーバーのリッピングはいかにもおまけって感じだからね。
とりあえず巣に帰ります・・・。。

290名無しさん@お腹いっぱい。2018/10/21(日) 10:13:12.69ID:1xHRBpJg0
そもそもWAVにタグっておかしいことに気がつかないんだろうな
foobarリッピングだって一応オフセットも設定できるし
おまけって発想もおかしいしな
だから馬鹿は無理すんなって言われんだよ

291名無しさん@お腹いっぱい。2018/10/21(日) 10:51:08.87ID:LOH1MEuP0
>>287
CUIでwavにタグつけられるプログラムがあれば簡単にできるよ
実はfoobarもコマンドラインからタグつけられる
昔EACからバッチファイルとfoobarでwavにタグつけられるか実験して遊んだことがあるけど一応上手く行ったよ

292名無しさん@お腹いっぱい。2018/10/22(月) 02:47:03.19ID:4xKsjafM0
wavフォーマットにタグなんて規定はないのですが。

293名無しさん@お腹いっぱい。2018/10/22(月) 13:09:10.15ID:lvrO7l450
WAVにはタグがないって誤情報いまだに収まらないんだな。
WAVの使用しているコンテナ規格であるRIFFには、SIFというタグ規格がある。
なおトラック番号の項目は規格化されていないので注意。
https://www.sno.phy.queensu.ca/~phil/exiftool/TagNames/RIFF.html
のRIFF Info Tagsの項目を見るべし。

294名無しさん@お腹いっぱい。2018/10/22(月) 21:45:07.80ID:tT9tp4BS0
ID3V2よりrmpの方が好きだったわw

295名無しさん@お腹いっぱい。2018/10/23(火) 21:13:22.58ID:h0xX24TX0
タグは優秀さ、汎用度においてVorbis comment一択

296名無しさん@お腹いっぱい。2018/10/24(水) 01:07:26.64ID:NIwHmTLH0
バカと言える時に現れる お前のようなのが嬉々として一番多くレスしてる単語はバカ 一体今まで何回書き込んだんだ?バカを?

他人の不幸を喜び 悪質な悪口ばかり吼える 陰湿な人間の心がない 精神やられた喚きをスレに叩き付ける様をご覧下さい
糖質 アスペ バカ キチガイ にわか ゴミ 糞 ガイジ等 コレだけ言いたいだけにスレでレスを繰り返す

こういうのが偉そうにし現実の惨めさからネットで虚勢を張っている こんなのが非常に多い

この手の小心者の性格が歪んだ惨めで陰湿な人間はスレに沿ったレスもせず只たんに横柄で口汚いレスをするばかり
ネットの匿名性から自分の素性を知られることもないのでネットで中傷できる時だけは出てきてレス
ウザイ・バカ・情弱・おまえ頭悪いだろ・貧乏人・日本語を勉強しろ・低脳・ゆとり等のワードを入れた単発レスをするのが日課

一番要らない年寄りはPCの前でこんな書き込みばかりしてる顔も心も精神も歪んで醜いオナニー猿は現実が惨めな不細工な顔のおっさん
将来年寄りになっても居なくなってくれない迷惑で他人の不幸を喜ぶ悪質で陰湿なお荷物

今日も明日も 馬鹿 アスペだぁ〜 ガイジだー 糖質だぁーと大好きな貶し単語を悦に浸ってレスし吼えまくる
 人もどきな顔も心も精神も歪んで醜いオナニー猿は現実が惨めな不細工な顔のおっさん は現実は惨め過ぎる

297名無しさん@お腹いっぱい。2018/10/26(金) 05:06:17.39ID:fHm7/CEg0
自己紹介ありがとう

298名無しさん@お腹いっぱい。2018/12/05(水) 17:15:07.94ID:EgVQ3hXK0
>>284
http://wiki.hydrogenaud.io/index.php?title=EAC_and_Lame
にコマンドオプションからタグ付けの方法が書いてある
おらには難しいので解読中w
作例をもう少し出してくれ

299名無しさん@お腹いっぱい。2018/12/06(木) 20:25:26.33ID:1zY8Fhmo0
自分が使ってるlameの設定だけど参考になれば
そのままだと書き込めなくて改行してるので注意
-V 5 --noreplaygain --id3v2-only --pad-id3v2-size 2048 --id3v2-utf16 --ta "%artist%" --tv "TPE2=%albumartist%" --tt "%title%" --tl "%albumtitle%"
--ty "%year%" --tn "%tracknr%/%numtracks%" --tg "%genre%" --tv "TPOS=%cdnumber%/%totalcds%" --ignore-tag-errors %source% %dest%

3002982018/12/07(金) 20:36:17.40ID:YaljW1wW0
>>299
ありがとう
参考にさせてもらいます

新着レスの表示
レスを投稿する